Roy Hargrove & The RH Factor - Distractions (2006)


Roy Hargrove & The RH Factor - Distractions
Jazz, R&B, funk | LOSSLESS (Seperate FLAC+md5+Log) + Scans | 255 Mb | Total Time: 1:12:23 | RS
Release Date: 5/2/2006 | Label: Verve | Catalog#: 0602498885602



Distractions is jam-packed with new jams from The RH Factor. From the old-school vibe of "Crazy Race" to the down-and-dirty instrumental "Kansas City Funk," this much-anticipated disc grooves with an organic funk/soul sound. It is yet another world that Hargrove lives in comfortably, and he once again shows off his talents as a composer. He wrote or co-wrote nearly all of Distractions' nine compositions including "Can't Stop" and the title track, an extended jam captured here in four parts. (Hargrove wrote most of the horn arrangements
on both discs.)
Vocalist Renee Neufville (formerly of the R&B duo Zhané) is also featured throughout Distractions as a singer, keyboardist, and songwriter. Her "On the One" is a magical retro tour and the ultra-funky "Hold On" (co-written with Hargrove) is a pure taste of P-Funk delight. Hargrove again calls in friend and collaborator D'Angelo for this RH Factor outing. The R&B star wrote, produced, and sings the track "Bull****," which also features backing vocals by Hargrove.

The largesse of sound created by the RH Factor comes from the band's lineup of two drummers (Willie Jones III and Jason “JT” Thomas), two bass players (Lenny Stalworth and Reggie Washington), one guitar player (Todd Parsnow), three keyboard players (Charles McCambell, Bobby Sparks and Neufville), and two saxophone players (Keith Anderson and special guest David "Fathead" Newman). Hargrove plays both trumpet and flugelhorn here.
The RH Factor's Distractions was produced by Hargrove and engineered and mixed by Russell "The Dragon" Elevado.



Personnel:
Renee Neufville - Vocal
Bobby Sparks - Organ, Keyboards, Arp
Charles McCampbell - Keyboards
Todd Parsnow - Guitar
Lenny Stalworth - Bass
Reggie Washington - Bass
Willie Jones III - Piano
Jason "JT" Thomas - Drums
David "Fathead" Newman - Tenor Saxophone (1-6, 8, 10-12)
D'Angelo - Vocal, Keyboards, Background Vocals (9)

~ T R A C K L I S T I N G ~
1. Distractions (Intro)
2. Crazy Race
3. Kansas City Funk
4. On the One
5. Family
6. Distractions 2
7. Place, A
8. Hold On
9. Bull***T
10. Distractions 3
11. Can't Stop
12. Distractions 4

EAC extraction logfile from 18. May 2006, 19:29 for CD
Roy Hargrove & The RH Factor / Distractions

Used drive : _NEC DVD_RW ND-3520A Adapter: 0 ID: 0
Read mode : Secure with NO C2, accurate stream, disable cache
Read offset correction : 48
Overread into Lead-In and Lead-Out : No

Used output format : C:\Program Files\ripaudio\Flac\bin\flac.exe (User Defined Encoder)
192 kBit/s
Additional command line options : -V -T "artist=%a" -T "title=%t" -T "album=%g" -T "date=%y" -T "tracknumber=%n" -T "genre=%m" -T "comment=REX Lossless FLAC" %s

Other options :
Fill up missing offset samples with silence : Yes
Delete leading and trailing silent blocks : No
Installed external ASPI interface


Track 1
Filename G:\Roy Hargrove & The RH Factor - Distractions - 2006\01_Distractions (Intro).wav

Peak level 100.0 %
Track quality 100.0 %
Test CRC B3F0F16E
Copy CRC B3F0F16E
Copy OK

Track 2
Filename G:\Roy Hargrove & The RH Factor - Distractions - 2006\02_Crazy Race.wav

Peak level 100.0 %
Track quality 100.0 %
Test CRC 0EB475EA
Copy CRC 0EB475EA
Copy OK

Track 3
Filename G:\Roy Hargrove & The RH Factor - Distractions - 2006\03_Kansas City Funk.wav

Peak level 100.0 %
Track quality 100.0 %
Test CRC E35305B4
Copy CRC E35305B4
Copy OK

Track 4
Filename G:\Roy Hargrove & The RH Factor - Distractions - 2006\04_On The One.wav

Peak level 100.0 %
Track quality 100.0 %
Test CRC 55405752
Copy CRC 55405752
Copy OK

Track 5
Filename G:\Roy Hargrove & The RH Factor - Distractions - 2006\05_Family.wav

Peak level 100.0 %
Track quality 100.0 %
Test CRC 0F9FAF0F
Copy CRC 0F9FAF0F
Copy OK

Track 6
Filename G:\Roy Hargrove & The RH Factor - Distractions - 2006\06_Distractions 2.wav

Peak level 100.0 %
Track quality 99.4 %
Test CRC 87E0726E
Copy CRC 87E0726E
Copy OK

Track 7
Filename G:\Roy Hargrove & The RH Factor - Distractions - 2006\07_A Place.wav

Peak level 100.0 %
Track quality 100.0 %
Test CRC 9C3C9532
Copy CRC 9C3C9532
Copy OK

Track 8
Filename G:\Roy Hargrove & The RH Factor - Distractions - 2006\08_Hold On.wav

Peak level 100.0 %
Track quality 100.0 %
Test CRC C012887B
Copy CRC C012887B
Copy OK

Track 9
Filename G:\Roy Hargrove & The RH Factor - Distractions - 2006\09_Bullxxxt (Featuring D'Angelo).wav

Peak level 100.0 %
Track quality 100.0 %
Test CRC ECEE723F
Copy CRC ECEE723F
Copy OK

Track 10
Filename G:\Roy Hargrove & The RH Factor - Distractions - 2006\10_Distractions 3.wav

Peak level 100.0 %
Track quality 100.0 %
Test CRC C559A440
Copy CRC C559A440
Copy OK

Track 11
Filename G:\Roy Hargrove & The RH Factor - Distractions - 2006\11_Can't Stop.wav

Peak level 100.0 %
Track quality 100.0 %
Test CRC B17DD9B3
Copy CRC B17DD9B3
Copy OK

Track 12
Filename G:\Roy Hargrove & The RH Factor - Distractions - 2006\12_Distractions 4.wav

Peak level 100.0 %
Track quality 100.0 %
Test CRC F5BAA625
Copy CRC F5BAA625
Copy OK

No errors occured


End of status report




RAR PASS:
marm@Duk3

LOSSLESS (Seperate FLAC+md5+Log)
Part 1
Part 2
Part 3


Download Mp3 Version
Here


Lossless Applications & Plugins
Here




To ROY HARGROVE Complete Discography
[12 CD'S Of Mp3 @ 192-320 Kbps + 14 Cd's of LOSSLESS | 6.7 GB @ RS]
Here

1 comment:

sergeygerasimov said...

Great thanks, man!
Your blog is awesome!