Shpongle - Are You Shpongled (1998)

Shpongle - Are You Shpongled
EAC (Seperate FLAC+LOG+Cue) | Total Time: 65:29 min | 447 Mb | + Scans
Released: 1998 | Genre: Tribal, Psy-Trance, Abstract, Ambient | Label: Twisted Records | Catalog#: TWSCD4

Shpongle, a word when you recommend to anyone or say, the typical first reaction is some odd face followed by, “What’s a Shpongle?” With this, this can also bring up the same reaction with one’s reaction to the music. The ramblings of some guy in Divine Moments of Truth, or the sudden breakdowns through scattered throughout the album. It’s an album of high and lows, of tension and release. Shpongle has mastered the art of their genre leaving many psychedelic bands in the dust with their complex rhythms, intense production, or the softness of Raja’s flute breaking over the top.

The album starts out with Shpongle Falls with a slow long buildup. The clearness of water droplets hitting upon a surface break down in between the first two tracks which just showcases the pristine production on the album. Vapour Rumors starts out a slow drifty flute track until climaxing into a staccato flute and synth driven beats. It’s the psychedelic genre exploding through the speakers before breaking down into a few oddly chosen voice samples.

Shpongle Spores stays relatively tame when coupled with Behind Closed Eyelids (prize to whoever figures out what their referencing to hah) the odd noises throughout the song is used to only enhance the music with enough changes to not bore the listener. Divine Moments of Truth (or DMT, a very hallucinogenic drug) is probably Shpongle’s most famous song starts out with a rambling voice with an odd jungle-esque rhythm behind it. It is probably Shpongle’s musical peak and the entire song never lets up with enough voice samples, DJ breakdowns, and electric violins solos to keep any drug user happy. The song eventually breaks down at the end to make way for nearing the end of the journey with …And The Day Turned Into Night.

This is an album which much of the electronic/psychedelic world has hailed as one of the greatest pieces of work. If I were to point any flaws the album is a little on the longer side, clocking in at an hour 18 min listening all the way through can be daunting but it does change enough to rarely drag on. The problem with this album is in comparison, Tales of the Inexpressible this album does not seem to be as varied or diverse.

This music is certainly not for everybody as most would probably find it too weird or out there and no clear melodies or direction may put off a first time listener. It is an intense album at times with peaks and valleys and much in between. Shpongle would go on to release two more albums to form a trilogy and while this may not be my favorite album of theirs, it does fit second on the list. The music on the disc is definitely a long ways away with mainstream music of today as a huge leap. It is an album that conveys a sense of wonder about the world and around us. It is meant to be listened to and not just background music but late at night with a high quality sound system or any place that conveys nature in its purest form. It’s incredible production just leaves me with questions as to how this album and Shpongle seem to be ignored in music awards and categories.

Shpongle: Raja Ram (vocals, flute); Simon Posford (guitar, synthesizer, bass)

Album Scans

1. Shpongle Falls
2. Monster Hit
3. Vapour Rumour
4. Shpongle Spores
5. Behind Closed Eyelids
6. Divine Moments of Truth
7. ...and the Day Turned to Night

Exact Audio Copy V0.99 prebeta 3 from 28. July 2007

EAC extraction logfile from 4. April 2008, 14:58

Shpongle / Are You Shpongled?

Used drive : _NEC DVD_RW ND-3550A Adapter: 5 ID: 0

Read mode : Secure
Utilize accurate stream : Yes
Defeat audio cache : Yes
Make use of C2 pointers : No

Read offset correction : 48
Overread into Lead-In and Lead-Out : No
Fill up missing offset samples with silence : Yes
Delete leading and trailing silent blocks : No
Null samples used in CRC calculations : No
Used interface : Installed external ASPI interface

Used output format : User Defined Encoder
Selected bitrate : 768 kBit/s
Quality : High
Add ID3 tag : No
Command line compressor : C:\Programmi\Exact Audio Copy\FLAC\FLAC.EXE
Additional command line options : -6 -V -T "ARTIST=%a" -T "TITLE=%t" -T "ALBUM=%g" -T "DATE=%y" -T "TRACKNUMBER=%n" -T "GENRE=%m" -T "COMMENT=%e" %s -o %d

TOC of the extracted CD

Track | Start | Length | Start sector | End sector
1 | 0:00.00 | 8:33.72 | 0 | 38546
2 | 8:33.72 | 8:57.03 | 38547 | 78824
3 | 17:31.00 | 10:26.07 | 78825 | 125781
4 | 27:57.07 | 7:16.13 | 125782 | 158494
5 | 35:13.20 | 12:29.15 | 158495 | 214684
6 | 47:42.35 | 10:20.25 | 214685 | 261209
7 | 58:02.60 | 19:57.60 | 261210 | 351044

Range status and errors

Selected range

Filename D:\Documents and Settings\salvo.SN116508160310\Documenti\Shpongle - Are You Shpongled.wav

Peak level 97.9 %
Range quality 100.0 %
Copy OK

No errors occurred

AccurateRip summary

Track 1 cannot be verified as accurate (confidence 5) [AF3EED6F], AccurateRip returned [6DBFAAFE]
Track 2 cannot be verified as accurate (confidence 5) [60B1CD41], AccurateRip returned [425B6456]
Track 3 cannot be verified as accurate (confidence 5) [54B8CC7A], AccurateRip returned [30B1DD74]
Track 4 cannot be verified as accurate (confidence 5) [CE0227F2], AccurateRip returned [2A9EE1AD]
Track 5 cannot be verified as accurate (confidence 5) [0BB442BB], AccurateRip returned [C1323175]
Track 6 cannot be verified as accurate (confidence 4) [044338E2], AccurateRip returned [A780E170]
Track 7 cannot be verified as accurate (confidence 5) [F06CEF72], AccurateRip returned [30A4C905]

No tracks could be verified as accurate
You may have a different pressing from the one(s) in the database

End of status report


Part 1
Part 2
Part 3


there is a a problem with one of the tracks in the Archive, it's:
06 - Divine Moment of truth

I am aware of that..please extract all the rest of the files except that one-

and download the file separately here:

Divine Moment Of Truth.Flac

No comments: